2018-05-16 | Luzie, der Schrecken der Straße | Wirtschaftswoche – 12 Mai 2018
classic-lawns.co.uk - The Largest Bittorent System Login   |    Register
Latest Articles
Most searched
Hot torrents
Movie Torrents
View Torrent Info: Rampage (2018) [720p] [YTS] [YIFY]
View Torrent Info: Ready Player One (2018) [720p] [YTS] [YIFY]
View Torrent Info: Escape Plan 2: Hades (2018) [720p] [YTS] [YIFY]
View Torrent Info: Life of the Party (2018) [720p] [YTS] [YIFY]
View Torrent Info: The Death of Superman (2018) [720p] [YTS] [YIFY]
View Torrent Info: Set It Up (2018) [720p] [YTS] [YIFY]
View Torrent Info: Beirut (2018) [720p] [YTS] [YIFY]
View Torrent Info: Ghostland (2018) [720p] [YTS] [YIFY]
View Torrent Info: The 12th Man (2017) [720p] [YTS] [YIFY]
View Torrent Info: The Yellow Birds (2017) [720p] [YTS] [YIFY]
Hot torrents
TV Torrents
View Torrent Info: Westworld.S02E09.WEB.H264-DEFLATE[eztv]
View Torrent Info: Supergirl.S03E23.HDTV.x264-KILLERS[eztv]
View Torrent Info: Elementary.S06E08.HDTV.x264-LOL[eztv]
View Torrent Info: Into.the.Badlands.S03E08.HDTV.x264-SVA[eztv]
View Torrent Info: Last.Week.Tonight.With.John.Oliver.S05E15.HDTV.x264-UAV[eztv]
View Torrent Info: Code.Black.S03E08.HDTV.x264-KILLERS[eztv]
View Torrent Info: 12.Monkeys.S04E01.HDTV.x264-KILLERS[eztv]
View Torrent Info: 12.Monkeys.S04E02.HDTV.x264-KILLERS[eztv]
View Torrent Info: 12.Monkeys.S04E03.HDTV.x264-KILLERS[eztv]
View Torrent Info: The.Expanse.S03E10.HDTV.x264-SVA[eztv]
classic-lawns.co.uk > Categories > Music torrents > Lossless torrents


Browse Music torrents

Alter Bridge - 2013 - Fortress torrent



Download torrent: Download Alter Bridge - 2013 - Fortress torrent Magnet link Bookmark Torrent: Alter Bridge - 2013 - Fortress Alter Bridge - 2013 - Fortress torrent | if not working, try instead: Magnet Link
Info hash: B9B03BA18B351A9EEA7A0C4F1A4C7EB555406809
Category: Categories > Music torrents > Lossless torrents
Trackers:
1    View all torrent trackers >
Health:
 seeds: 9 ,  leechers: 0 |  Update >
Torrent language:  
Total Size: 1.20 GB
Torrent status: Added by trusted uploader Added by trusted uploader Trusted Uploader Site Friend Superman Sun
Uploader: Trusted Uploader Site Friend Superman Sun
Torrent added: 2018-06-10 17:00:37
 

Download Alter Bridge - 2013 - Fortress torrent if not working, try downloading torrent using Download Alter Bridge - 2013 - Fortress via Magnet Link




Torrent Description





--------------------------------------------------------------------------------
Analyzed: Alter Bridge / Fortress
--------------------------------------------------------------------------------

DR         Peak         RMS     Duration Track
--------------------------------------------------------------------------------
DR11      -6.23 dB   -19.18 dB      6:29 01-Cry Of Achilles
DR11      -7.22 dB   -19.17 dB      4:14 02-Addicted To Pain
DR11      -6.16 dB   -20.55 dB      4:40 03-Bleed It Dry
DR11      -6.92 dB   -21.21 dB      5:13 04-Lover
DR12      -6.55 dB   -20.08 dB      4:47 05-The Uninvited
DR12      -7.02 dB   -20.08 dB      4:38 06-Peace Is Broken
DR11      -8.32 dB   -21.61 dB      5:59 07-Calm The Fire
DR11      -6.37 dB   -19.66 dB      5:38 08-Waters Rising
DR12      -7.67 dB   -20.45 dB      4:04 09-Farther Than The Sun
DR11      -8.30 dB   -20.78 dB      4:00 10-Cry A River
DR11      -6.82 dB   -19.72 dB      5:12 11-All Ends Well
DR11      -7.98 dB   -20.71 dB      7:30 12-Fortress
--------------------------------------------------------------------------------

Number of tracks:  12
Official DR value: DR11

Samplerate:        96000 Hz
Channels:          2
Bits per sample:   24
Bitrate:           2632 kbps
Codec:             FLAC
================================================================================



#KATJohnRambo -> To avoid fakes, ALWAYS check that the torrent was added on classic-lawns.co.uk by KATJohnRambo

http://classic-lawns.co.uk/



Download Alter Bridge - 2013 - Fortress torrent


Comments (please add your comment)
No comments



Home - Browse Torrents - Upload Torrent - Stat - Forum - FAQ - Login
classic-lawns.co.uk is in compliance with copyrights
2006-2018 classic-lawns.co.uk