Westworld (2016) | Stephen Merchant | Iron Fist
classic-lawns.co.uk - The Largest Bittorent System Login   |    Register
Latest Articles
Most searched
Hot torrents
Movie Torrents
View Torrent Info: Rampage (2018) [720p] [YTS] [YIFY]
View Torrent Info: Ready Player One (2018) [720p] [YTS] [YIFY]
View Torrent Info: Escape Plan 2: Hades (2018) [720p] [YTS] [YIFY]
View Torrent Info: Blockers (2018) [720p] [YTS] [YIFY]
View Torrent Info: Life of the Party (2018) [720p] [YTS] [YIFY]
View Torrent Info: The Death of Superman (2018) [720p] [YTS] [YIFY]
View Torrent Info: Isle of Dogs (2018) [720p] [YTS] [YIFY]
View Torrent Info: Set It Up (2018) [720p] [YTS] [YIFY]
View Torrent Info: Beirut (2018) [720p] [YTS] [YIFY]
View Torrent Info: Ghostland (2018) [720p] [YTS] [YIFY]
Hot torrents
TV Torrents
View Torrent Info: Westworld.S02E09.WEB.H264-DEFLATE[eztv]
View Torrent Info: Supergirl.S03E23.HDTV.x264-KILLERS[eztv]
View Torrent Info: The.Originals.S05E09.HDTV.x264-KILLERS[eztv]
View Torrent Info: The.Expanse.S03E11.HDTV.x264-KILLERS[eztv]
View Torrent Info: Colony.S03E08.HDTV.x264-KILLERS[eztv]
View Torrent Info: Into.the.Badlands.S03E08.HDTV.x264-SVA[eztv]
View Torrent Info: Last.Week.Tonight.With.John.Oliver.S05E15.HDTV.x264-UAV[eztv]
View Torrent Info: Elementary.S06E08.HDTV.x264-LOL[eztv]
View Torrent Info: Reverie.S01E04.HDTV.x264-KILLERS[eztv]
View Torrent Info: 12.Monkeys.S04E01.HDTV.x264-KILLERS[eztv]
classic-lawns.co.uk > Categories > Movies torrents > MP4 torrents


Browse Movies torrents

Batman: Gotham by Gaslight(2018)Mp-4 Dvd Rip[DaScubaDude] torrent



Download torrent: Download Batman: Gotham by Gaslight(2018)Mp-4 Dvd Rip[DaScubaDude] torrent Magnet link Bookmark Torrent: Batman: Gotham by Gaslight(2018)Mp-4 Dvd Rip[DaScubaDude] Batman: Gotham by Gaslight(2018)Mp-4 Dvd Rip[DaScubaDude] torrent | if not working, try instead: Magnet Link
Info hash: 060D5DD9C463A43228A437872B5848F07205A4AA
Category: Categories > Movies torrents > MP4 torrents
Trackers:
7    View all torrent trackers >
Health:
 seeds: 12 ,  leechers: 19 |  Update >
Torrent language:  
Total Size: 816.20 MB
Torrent status: Added by trusted uploader Added by trusted uploader Trusted Uploader Site Friend Superman Sun
Uploader: Trusted Uploader Site Friend Superman Sun
Torrent added: 2018-06-14 06:25:00
 

Download Batman: Gotham by Gaslight(2018)Mp-4 Dvd Rip[DaScubaDude] torrent if not working, try downloading torrent using Download Batman: Gotham by Gaslight(2018)Mp-4 Dvd Rip[DaScubaDude] via Magnet Link




Torrent Description


[youtube]TJ6EX6zX4FU[/youtube]
IMDb Info for this feature
General
Complete name : Batman Gotham by Gaslight\BATMAN_GOTHAM_BY_GASLIGHT_Title1.mp4
Format : MPEG-4
Format profile : Base Media
Codec ID : isom (isom/iso2/avc1/mp41)
File size : 812 MiB
Duration : 1 h 17 min
Overall bit rate : 1 475 kb/s
Movie name : BATMAN_GOTHAM_BY_GASLIGHT
Genre : Action
Writing application : Lavf54.6.100

Video
ID : 1
Format : AVC
Format/Info : Advanced Video Codec
Format profile : [email protected]
Format settings : 6 Ref Frames
Format settings, CABAC : No
Format settings, RefFrames : 6 frames
Codec ID : avc1
Codec ID/Info : Advanced Video Coding
Duration : 1 h 17 min
Bit rate : 1 201 kb/s
Width : 720 pixels
Height : 404 pixels
Display aspect ratio : 16:9
Frame rate mode : Constant
Frame rate : 29.970 (30000/1001) FPS
Color space : YUV
Chroma subsampling : 4:2:0
Bit depth : 8 bits
Scan type : Progressive
Bits/(Pixel*Frame) : 0.138
Stream size : 662 MiB (81%)

Audio
ID : 2
Format : AAC
Format/Info : Advanced Audio Codec
Format profile : LC
Codec ID : mp4a-40-2
Duration : 1 h 17 min
Bit rate mode : Constant
Bit rate : 265 kb/s
Channel(s) : 2 channels
Channel(s)_Original : 6 channels
Channel positions : Front: L C R, Side: L R, LFE
Sampling rate : 44.1 kHz
Frame rate : 43.066 FPS (1024 SPF)
Compression mode : Lossy
Stream size : 147 MiB (18%)
Default : Yes
Alternate group : 1



#Dascubadude -> To avoid fakes, ALWAYS check that the torrent was added on classic-lawns.co.uk by Dascubadude

http://classic-lawns.co.uk/



Download Batman: Gotham by Gaslight(2018)Mp-4 Dvd Rip[DaScubaDude] torrent


Comments (please add your comment)
No comments



Home - Browse Torrents - Upload Torrent - Stat - Forum - FAQ - Login
classic-lawns.co.uk is in compliance with copyrights
2006-2018 classic-lawns.co.uk