29.05.1800:57 Uhr Ebook-Package 29.05.2018*14 aktuelle Magazine* 0 / 05.573 Hits VID P2P DDL 0 Kommentare | Mariska Hargitay | La sala de los espejos
classic-lawns.co.uk - The Largest Bittorent System Login   |    Register
Latest Articles
Most searched
Hot torrents
Movie Torrents
View Torrent Info: Rampage (2018) [720p] [YTS] [YIFY]
View Torrent Info: Ready Player One (2018) [720p] [YTS] [YIFY]
View Torrent Info: Stolen princess: Ruslan and Ludmila (2018) [720p] [YTS] [YIFY]
View Torrent Info: Truth or Dare (2018) [720p] [YTS] [YIFY]
View Torrent Info: Life of the Party (2018) [720p] [YTS] [YIFY]
View Torrent Info: Blockers (2018) [720p] [YTS] [YIFY]
View Torrent Info: Blockers (2018) [720p] [YTS] [YIFY]
View Torrent Info: Loving Pablo (2017) [720p] [YTS] [YIFY]
View Torrent Info: The Death of Superman (2018) [720p] [YTS] [YIFY]
View Torrent Info: Isle of Dogs (2018) [720p] [YTS] [YIFY]
Hot torrents
TV Torrents
View Torrent Info: Westworld.S02E09.WEB.H264-DEFLATE[eztv]
View Torrent Info: Supergirl.S03E23.HDTV.x264-KILLERS[eztv]
View Torrent Info: The.Originals.S05E09.HDTV.x264-KILLERS[eztv]
View Torrent Info: The.Expanse.S03E11.HDTV.x264-KILLERS[eztv]
View Torrent Info: Colony.S03E08.HDTV.x264-KILLERS[eztv]
View Torrent Info: Quantico.S03E07.HDTV.x264-KILLERS[eztv]
View Torrent Info: Marvels.Cloak.and.Dagger.S01E04.WEB.x264-TBS[eztv]
View Torrent Info: Taken.2017.S02E15.HDTV.x264-KILLERS[eztv]
View Torrent Info: Last.Week.Tonight.With.John.Oliver.S05E15.HDTV.x264-UAV[eztv]
View Torrent Info: Marvels.Luke.Cage.S02E01.WEB.x264-STRiFE[eztv]
classic-lawns.co.uk > Categories > Movies torrents > HD torrents


Browse Movies torrents

Kaala Koothu (2018) Tamil - HDRip - x264 - 700MB - MP3 - HC-ESub - MovCr torrent



Download torrent: Download Kaala Koothu (2018) Tamil - HDRip - x264 - 700MB - MP3 - HC-ESub - MovCr torrent Magnet link Bookmark Torrent: Kaala Koothu (2018) Tamil - HDRip - x264 - 700MB - MP3 - HC-ESub - MovCr Kaala Koothu (2018) Tamil - HDRip - x264 - 700MB - MP3 - HC-ESub - MovCr torrent | if not working, try instead: Magnet Link
Info hash: 345A83344374AA96B04DB9C0B41B7FC9B5A14273
Category: Categories > Movies torrents > HD torrents
Trackers:
22    View all torrent trackers >
Health:
 seeds: 0 ,  leechers: 0 |  Update >
Total Size: 706.20 MB
Torrent status: Added by trusted uploader Added by trusted uploader Trusted Uploader Site Friend Superman Sun
Uploader: Trusted Uploader Site Friend Superman Sun
Torrent added: 2018-06-14 06:59:43
 

Download Kaala Koothu (2018) Tamil - HDRip - x264 - 700MB - MP3 - HC-ESub - MovCr torrent if not working, try downloading torrent using Download Kaala Koothu (2018) Tamil - HDRip - x264 - 700MB - MP3 - HC-ESub - MovCr via Magnet Link




Torrent Description

http://movcr.com/


Kaala Koothu (2018) Tamil - HDRip - x264 - 700MB - MP3 - HC-ESub - MovCr



Video
ID : 1
Format : AVC
Format/Info : Advanced Video Codec
Format profile : [email protected]
Format settings, CABAC : Yes
Format settings, ReFrames : 4 frames
Codec ID : V_MPEG4/ISO/AVC
Duration : 1 h 55 min
Bit rate : 754 kb/s
Width : 720 pixels
Height : 312 pixels
Display aspect ratio : 2.35:1
Frame rate mode : Constant
Frame rate : 24.000 FPS
Color space : YUV
Chroma subsampling : 4:2:0
Bit depth : 8 bits
Scan type : Progressive
Bits/(Pixel*Frame) : 0.140
Stream size : 624 MiB (88%)
Title : www.MovCr.com
Writing library : x264 core 155 r2901 7d0ff22
Encoding settings : cabac=1 / ref=3 / deblock=1:0:0 / analyse=0x3:0x113 / me=hex / subme=7 / psy=1 / psy_rd=1.00:0.00 / mixed_ref=1 / me_range=16 / chroma_me=1 / trellis=1 / 8x8dct=1 / cqm=0 / deadzone=21,11 / fast_pskip=1 / chroma_qp_offset=-2 / threads=10 / lookahead_threads=1 / sliced_threads=0 / nr=0 / decimate=1 / interlaced=0 / bluray_compat=0 / constrained_intra=0 / bframes=3 / b_pyramid=2 / b_adapt=1 / b_bias=0 / direct=1 / weightb=1 / open_gop=0 / weightp=2 / keyint=240 / keyint_min=24 / scenecut=40 / intra_refresh=0 / rc_lookahead=40 / rc=2pass / mbtree=1 / bitrate=754 / ratetol=1.0 / qcomp=0.60 / qpmin=0 / qpmax=69 / qpstep=4 / cplxblur=20.0 / qblur=0.5 / ip_ratio=1.40 / aq=1:1.00
Language : Tamil
Default : Yes
Forced : No

Audio
ID : 2
Format : MPEG Audio
Format version : Version 1
Format profile : Layer 3
Mode : Joint stereo
Mode extension : MS Stereo
Codec ID : A_MPEG/L3
Codec ID/Hint : MP3
Duration : 1 h 55 min
Bit rate mode : Variable
Bit rate : 96.0 kb/s
Channel(s) : 2 channels
Sampling rate : 48.0 kHz
Frame rate : 41.667 FPS (1152 spf)
Compression mode : Lossy
Stream size : 80.3 MiB (11%)
Title : www.MovCr.com
Writing library : LAME3.99r
Encoding settings : -m j -V 4 -q 3 -lowpass 15.1 --abr 96
Language : Tamil
Default : Yes
Forced : No







#MovCr -> To avoid fakes, ALWAYS check that the torrent was added on classic-lawns.co.uk by MovCr

http://classic-lawns.co.uk/



Download Kaala Koothu (2018) Tamil - HDRip - x264 - 700MB - MP3 - HC-ESub - MovCr torrent


Comments (please add your comment)
No comments



Home - Browse Torrents - Upload Torrent - Stat - Forum - FAQ - Login
classic-lawns.co.uk is in compliance with copyrights
2006-2018 classic-lawns.co.uk