Red Caps | Isle of Dogs (2018) | Jonathan Scar...
classic-lawns.co.uk - The Largest Bittorent System Login   |    Register
Latest Articles
Most searched
Hot torrents
Movie Torrents
View Torrent Info: Deadpool 2 (2018) [720p] [YTS] [YIFY]
View Torrent Info: Tag (2018) [720p] [YTS] [YIFY]
View Torrent Info: Deadpool 2 (2018) [720p] [YTS] [YIFY]
View Torrent Info: Upgrade (2018) [720p] [YTS] [YIFY]
View Torrent Info: Patient Zero (2018) [720p] [YTS] [YIFY]
View Torrent Info: The Son of Bigfoot (2017) [720p] [YTS] [YIFY]
View Torrent Info: Book Club (2018) [720p] [YTS] [YIFY]
View Torrent Info: Show Dogs (2018) [720p] [YTS] [YIFY]
View Torrent Info: Action Point (2018) [720p] [YTS] [YIFY]
View Torrent Info: Deadpool 2 (2018) [720p] [YTS] [YIFY]
Hot torrents
TV Torrents
View Torrent Info: Suits.S08E04.HDTV.x264-KILLERS[eztv]
View Torrent Info: Better.Call.Saul.S04E02.HDTV.x264-SVA[eztv]
View Torrent Info: The.100.S05E13.WEB.x264-TBS[eztv]
View Torrent Info: Power.2014.S05E07.HDTV.x264[eztv]
View Torrent Info: Elementary.S06E15.HDTV.x264-AVSHiT[eztv]
View Torrent Info: Preacher.S03E08.HDTV.x264-SVA[eztv]
View Torrent Info: Elementary.S06E16.HDTV.x264-KILLERS[eztv]
View Torrent Info: Fear.the.Walking.Dead.S04E09.HDTV.x264-SVA[eztv]
View Torrent Info: Ballers.2015.S04E01.HDTV.x264-aAF[eztv]
View Torrent Info: Salvation.S02E08.HDTV.x264-KILLERS[eztv]
classic-lawns.co.uk > Categories > Movies torrents > HD torrents


Browse Movies torrents

Kaala Koothu (2018) Tamil - 720p - HDRip - x264 - 1.4GB - AC3 5.1 - ESubs - MovCr torrent



Download torrent: Download Kaala Koothu (2018) Tamil - 720p - HDRip - x264 - 1.4GB - AC3 5.1  - ESubs - MovCr torrent Magnet link Bookmark Torrent: Kaala Koothu (2018) Tamil - 720p - HDRip - x264 - 1.4GB - AC3 5.1  - ESubs - MovCr Kaala Koothu (2018) Tamil - 720p - HDRip - x264 - 1.4GB - AC3 5.1 - ESubs - MovCr torrent | if not working, try instead: Magnet Link
Info hash: 8D9AE6CC4208CA6BA63B99B28382A495D713B409
Category: Categories > Movies torrents > HD torrents
Trackers:
22    View all torrent trackers >
Health:
 seeds: 0 ,  leechers: 0 |  Update >
Total Size: 1.40 GB
Torrent status: Added by trusted uploader Added by trusted uploader Trusted Uploader Site Friend Superman Sun
Uploader: Trusted Uploader Site Friend Superman Sun
Torrent added: 2018-06-14 06:59:47
 

Download Kaala Koothu (2018) Tamil - 720p - HDRip - x264 - 1.4GB - AC3 5.1  - ESubs - MovCr torrent if not working, try downloading torrent using Download Kaala Koothu (2018) Tamil - 720p - HDRip - x264 - 1.4GB - AC3 5.1  - ESubs - MovCr via Magnet Link




Torrent Description

http://movcr.com/


Kaala Koothu (2018) Tamil - 720p - HDRip - x264 - 1.4GB - AC3 5.1 - ESubs - MovCr



Video
ID : 1
Format : AVC
Format/Info : Advanced Video Codec
Format profile : [email protected]
Format settings, CABAC : Yes
Format settings, ReFrames : 4 frames
Codec ID : V_MPEG4/ISO/AVC
Duration : 1 h 55 min
Bit rate : 1 603 kb/s
Width : 1 280 pixels
Height : 554 pixels
Display aspect ratio : 2.35:1
Frame rate mode : Constant
Frame rate : 24.000 FPS
Color space : YUV
Chroma subsampling : 4:2:0
Bit depth : 8 bits
Scan type : Progressive
Bits/(Pixel*Frame) : 0.094
Stream size : 1.30 GiB (91%)
Title : www.MovCr.com
Writing library : x264 core 148 r2744 b97ae06
Encoding settings : cabac=1 / ref=3 / deblock=1:0:0 / analyse=0x3:0x113 / me=hex / subme=7 / psy=1 / psy_rd=1.00:0.00 / mixed_ref=1 / me_range=16 / chroma_me=1 / trellis=1 / 8x8dct=1 / cqm=0 / deadzone=21,11 / fast_pskip=1 / chroma_qp_offset=-2 / threads=12 / lookahead_threads=2 / sliced_threads=0 / nr=0 / decimate=1 / interlaced=0 / bluray_compat=0 / constrained_intra=0 / bframes=3 / b_pyramid=2 / b_adapt=1 / b_bias=0 / direct=1 / weightb=1 / open_gop=0 / weightp=2 / keyint=240 / keyint_min=24 / scenecut=40 / intra_refresh=0 / rc_lookahead=40 / rc=2pass / mbtree=1 / bitrate=1603 / ratetol=1.0 / qcomp=0.60 / qpmin=0 / qpmax=69 / qpstep=4 / cplxblur=20.0 / qblur=0.5 / ip_ratio=1.40 / aq=1:1.00
Language : English
Default : Yes
Forced : No

Audio
ID : 2
Format : AC-3
Format/Info : Audio Coding 3
Mode extension : CM (complete main)
Format settings, Endianness : Big
Codec ID : A_AC3
Duration : 1 h 55 min
Bit rate mode : Constant
Bit rate : 160 kb/s
Channel(s) : 6 channels
Channel positions : Front: L C R, Side: L R, LFE
Sampling rate : 44.1 kHz
Frame rate : 28.711 FPS (1536 spf)
Bit depth : 16 bits
Compression mode : Lossy
Stream size : 132 MiB (9%)
Title : www.MovCr.com
Language : English
Default : Yes
Forced : No







#MovCr -> To avoid fakes, ALWAYS check that the torrent was added on classic-lawns.co.uk by MovCr

http://classic-lawns.co.uk/



Download Kaala Koothu (2018) Tamil - 720p - HDRip - x264 - 1.4GB - AC3 5.1  - ESubs - MovCr torrent


Comments (please add your comment)
No comments



Home - Browse Torrents - Upload Torrent - Stat - Forum - FAQ - Login
classic-lawns.co.uk is in compliance with copyrights
2006-2018 classic-lawns.co.uk