Angrezi Mein Kehte Hain | 48996 Teman Tapi Menikah (2018) | Watch L'Homme qui tua Don Quichotte 1080p HDRip Torrent gratuity
classic-lawns.co.uk - The Largest Bittorent System Login   |    Register
Latest Articles
Most searched
Hot torrents
Movie Torrents
View Torrent Info: Tag (2018) [720p] [YTS] [YIFY]
View Torrent Info: Upgrade (2018) [720p] [YTS] [YIFY]
View Torrent Info: Patient Zero (2018) [720p] [YTS] [YIFY]
View Torrent Info: The Son of Bigfoot (2017) [720p] [YTS] [YIFY]
View Torrent Info: Book Club (2018) [720p] [YTS] [YIFY]
View Torrent Info: Show Dogs (2018) [720p] [YTS] [YIFY]
View Torrent Info: Action Point (2018) [720p] [YTS] [YIFY]
View Torrent Info: Strange Magic (2015) [720p] [YTS] [YIFY]
View Torrent Info: Vampire Cleanup Department (2017) [720p] [YTS] [YIFY]
View Torrent Info: Gerald's Game (2017) [720p] [YTS] [YIFY]
Hot torrents
TV Torrents
View Torrent Info: Suits.S08E04.HDTV.x264-KILLERS[eztv]
View Torrent Info: Better.Call.Saul.S04E02.HDTV.x264-SVA[eztv]
View Torrent Info: The.100.S05E13.WEB.x264-TBS[eztv]
View Torrent Info: Power.2014.S05E07.HDTV.x264[eztv]
View Torrent Info: Elementary.S06E15.HDTV.x264-AVSHiT[eztv]
View Torrent Info: Preacher.S03E08.HDTV.x264-SVA[eztv]
View Torrent Info: Elementary.S06E16.HDTV.x264-KILLERS[eztv]
View Torrent Info: Fear.the.Walking.Dead.S04E09.HDTV.x264-SVA[eztv]
View Torrent Info: Ballers.2015.S04E01.HDTV.x264-aAF[eztv]
View Torrent Info: Salvation.S02E08.HDTV.x264-KILLERS[eztv]
classic-lawns.co.uk > Categories > Movies torrents > Bollywood/Desi torrents


Browse Movies torrents

Laavaan Phere 2018 x264 720p HD 5.1 Punjabi GOPISAHI torrent



Download torrent: Download Laavaan Phere 2018 x264 720p HD 5.1 Punjabi GOPISAHI torrent Magnet link Bookmark Torrent: Laavaan Phere 2018 x264 720p HD 5.1 Punjabi GOPISAHI Laavaan Phere 2018 x264 720p HD 5.1 Punjabi GOPISAHI torrent | if not working, try instead: Magnet Link
Info hash: 141A6F87694A284440CDACBE6706D21108BBAB9D
Category: Categories > Movies torrents > Bollywood/Desi torrents
Trackers:
13    View all torrent trackers >
Health:
 seeds: 1 ,  leechers: 3 |  Update >
Total Size: 664.70 MB
Torrent status: Added by trusted uploader Added by trusted uploader Trusted Uploader Site Friend Superman Sun
Uploader: Trusted Uploader Site Friend Superman Sun
Torrent added: 2018-06-14 08:06:28
 

Download Laavaan Phere 2018 x264 720p HD 5.1 Punjabi GOPISAHI torrent if not working, try downloading torrent using Download Laavaan Phere 2018 x264 720p HD 5.1 Punjabi GOPISAHI via Magnet Link




Torrent Description


http://www.gopisahi.pw/
Format : Matroska
Format version : Version 4 / Version 2
File size : 665 MiB
Duration : 2 h 3 min
Overall bit rate : 752 kb/s
Movie name : Laavaan Phere 2018 GOPISAHI

Video
Format : AVC
Codec ID : V_MPEG4/ISO/AVC
Duration : 2 h 3 min
Bit rate : 600 kb/s
Width : 1 280 pixels
Height : 664 pixels
Display aspect ratio : 1.928
Frame rate mode : Constant
Frame rate : 25.000 FPS
Color space : YUV
Chroma subsampling : 4:2:0
Bit depth : 8 bits
Scan type : Progressive
Bits/(Pixel*Frame) : 0.028
Stream size : 530 MiB (80%)
Title : GOPISAHI
Writing library : x264 core 155 r2893 b00bcaf

Audio
Format : AAC
Duration : 2 h 3 min
Bit rate : 150 kb/s
Channel(s) : 2 channels
Channel positions : Front: L R
Sampling rate : 44.1 kHz
Frame rate : 43.066 FPS (1024 SPF)
Compression mode : Lossy
Stream size : 132 MiB (20%)
Title : GOPISAHI
Language : Panjabi




#PENDUDESI -> To avoid fakes, ALWAYS check that the torrent was added on classic-lawns.co.uk by PENDUDESI

http://classic-lawns.co.uk/



Download Laavaan Phere 2018 x264 720p HD 5.1 Punjabi GOPISAHI torrent


Comments (please add your comment)
No comments



Home - Browse Torrents - Upload Torrent - Stat - Forum - FAQ - Login
classic-lawns.co.uk is in compliance with copyrights
2006-2018 classic-lawns.co.uk