Gold Rush: White Water | Chapter 125 | Virage Nord
classic-lawns.co.uk - The Largest Bittorent System Login   |    Register
Latest Articles
Most searched
Hot torrents
Movie Torrents
View Torrent Info: Tag (2018) [720p] [YTS] [YIFY]
View Torrent Info: Upgrade (2018) [720p] [YTS] [YIFY]
View Torrent Info: Patient Zero (2018) [720p] [YTS] [YIFY]
View Torrent Info: Book Club (2018) [720p] [YTS] [YIFY]
View Torrent Info: Action Point (2018) [720p] [YTS] [YIFY]
View Torrent Info: Gatao 2: Rise of the King (2018) [720p] [YTS] [YIFY]
View Torrent Info: Vampire Cleanup Department (2017) [720p] [YTS] [YIFY]
View Torrent Info: Confessions of a Brazilian Call Girl (2011) [720p] [YTS] [YIFY]
View Torrent Info: The Campus (2018) [720p] [YTS] [YIFY]
View Torrent Info: Cheaper by the Dozen 2 (2005) [720p] [YTS] [YIFY]
Hot torrents
TV Torrents
View Torrent Info: Suits.S08E05.HDTV.x264-SVA[eztv]
View Torrent Info: Power.2014.S05E07.HDTV.x264[eztv]
View Torrent Info: Elementary.S06E15.HDTV.x264-AVSHiT[eztv]
View Torrent Info: Better.Call.Saul.S04E02.HDTV.x264-SVA[eztv]
View Torrent Info: Elementary.S06E16.HDTV.x264-KILLERS[eztv]
View Torrent Info: Ballers.2015.S04E01.HDTV.x264-aAF[eztv]
View Torrent Info: Salvation.S02E08.HDTV.x264-KILLERS[eztv]
View Torrent Info: Shades.of.Blue.S03E09.HDTV.x264-KILLERS[eztv]
View Torrent Info: The.Sinner.S02E03.HDTV.x264-KILLERS[eztv]
View Torrent Info: Fear.the.Walking.Dead.S04E09.HDTV.x264-SVA[eztv]
classic-lawns.co.uk > Categories > Movies torrents > h.264/x264 torrents


Browse Movies torrents

Avengers Infinity War (2018) 720p - New HDTC - Line Auds - [Hindi + Tamil + Telugu + Eng] - MovCr torrent



Download torrent: Download Avengers Infinity War (2018) 720p - New HDTC - Line Auds - [Hindi + Tamil + Telugu + Eng] - MovCr torrent Magnet link Bookmark Torrent: Avengers Infinity War (2018) 720p - New HDTC - Line Auds - [Hindi + Tamil + Telugu + Eng] - MovCr Avengers Infinity War (2018) 720p - New HDTC - Line Auds - [Hindi + Tamil + Telugu + Eng] - MovCr torrent | if not working, try instead: Magnet Link
Info hash: 94EDEE90279ED08DA25FB7755A80F8B923CD12FB
Category: Categories > Movies torrents > h.264/x264 torrents
Trackers:
22    View all torrent trackers >
Health:
 seeds: 0 ,  leechers: 0 |  Update >
Torrent language:  
Total Size: 1.30 GB
Torrent status: Added by trusted uploader Added by trusted uploader Trusted Uploader Site Friend Superman Sun
Uploader: Trusted Uploader Site Friend Superman Sun
Torrent added: 2018-06-14 10:26:31
 

Download Avengers Infinity War (2018) 720p - New HDTC - Line Auds - [Hindi + Tamil + Telugu + Eng] - MovCr torrent if not working, try downloading torrent using Download Avengers Infinity War (2018) 720p - New HDTC - Line Auds - [Hindi + Tamil + Telugu + Eng] - MovCr via Magnet Link




Torrent Description

http://movcr.com


Avengers Infinity War (2018) 720p - New HDTC - Line Auds - [Hindi + Tamil + Telugu + Eng] - MovCr


Video
ID : 1
Format : AVC
Format/Info : Advanced Video Codec
Format profile : [email protected]
Format settings, CABAC : Yes
Format settings, ReFrames : 8 frames
Codec ID : V_MPEG4/ISO/AVC
Duration : 2 h 17 min
Bit rate : 1 030 kb/s
Width : 1 280 pixels
Height : 536 pixels
Display aspect ratio : 2.40:1
Frame rate mode : Constant
Frame rate : 25.000 FPS
Color space : YUV
Chroma subsampling : 4:2:0
Bit depth : 8 bits
Scan type : Progressive
Bits/(Pixel*Frame) : 0.060
Stream size : 1 015 MiB (74%)
Title : www.MovCr.com
Writing library : x264 core 155 r2893 b00bcaf
Encoding settings : cabac=1 / ref=8 / deblock=1:0:0 / analyse=0x3:0x133 / me=umh / subme=9 / psy=1 / psy_rd=1.00:0.00 / mixed_ref=1 / me_range=16 / chroma_me=1 / trellis=2 / 8x8dct=1 / cqm=0 / deadzone=21,11 / fast_pskip=1 / chroma_qp_offset=-2 / threads=17 / lookahead_threads=1 / sliced_threads=0 / nr=0 / decimate=1 / interlaced=0 / bluray_compat=0 / constrained_intra=0 / bframes=3 / b_pyramid=2 / b_adapt=2 / b_bias=0 / direct=3 / weightb=1 / open_gop=0 / weightp=2 / keyint=250 / keyint_min=25 / scenecut=40 / intra_refresh=0 / rc_lookahead=60 / rc=2pass / mbtree=1 / bitrate=1030 / ratetol=1.0 / qcomp=0.60 / qpmin=0 / qpmax=69 / qpstep=4 / cplxblur=20.0 / qblur=0.5 / vbv_maxrate=62500 / vbv_bufsize=78125 / nal_hrd=none / filler=0 / ip_ratio=1.40 / aq=1:1.00
Language : English
Default : Yes
Forced : No
Color range : Limited
Color primaries : BT.709
Transfer characteristics : BT.709
Matrix coefficients : BT.709

Audio #1
ID : 2
Format : MPEG Audio
Format version : Version 1
Format profile : Layer 3
Mode : Joint stereo
Mode extension : MS Stereo
Codec ID : A_MPEG/L3
Codec ID/Hint : MP3
Duration : 2 h 17 min
Bit rate mode : Variable
Bit rate : 96.0 kb/s
Channel(s) : 2 channels
Sampling rate : 48.0 kHz
Frame rate : 41.667 FPS (1152 spf)
Compression mode : Lossy
Stream size : 96.7 MiB (7%)
Title : www.MovCr.com
Writing library : LAME3.99r
Encoding settings : -m j -V 4 -q 3 -lowpass 15.1 --abr 96
Language : Hindi
Default : Yes
Forced : No

Audio #2
ID : 3
Format : MPEG Audio
Format version : Version 1
Format profile : Layer 3
Mode : Joint stereo
Mode extension : MS Stereo
Codec ID : A_MPEG/L3
Codec ID/Hint : MP3
Duration : 2 h 17 min
Bit rate mode : Variable
Bit rate : 96.0 kb/s
Channel(s) : 2 channels
Sampling rate : 48.0 kHz
Frame rate : 41.667 FPS (1152 spf)
Compression mode : Lossy
Stream size : 96.7 MiB (7%)
Title : www.MovCr.com
Writing library : LAME3.99r
Encoding settings : -m j -V 4 -q 3 -lowpass 15.1 --abr 96
Language : Telugu
Default : No
Forced : No

Audio #3
ID : 4
Format : MPEG Audio
Format version : Version 1
Format profile : Layer 3
Mode : Joint stereo
Mode extension : MS Stereo
Codec ID : A_MPEG/L3
Codec ID/Hint : MP3
Duration : 2 h 17 min
Bit rate mode : Variable
Bit rate : 96.0 kb/s
Channel(s) : 2 channels
Sampling rate : 48.0 kHz
Frame rate : 41.667 FPS (1152 spf)
Compression mode : Lossy
Stream size : 91.6 MiB (7%)
Title : www.MovCr.com
Writing library : LAME3.99r
Encoding settings : -m j -V 4 -q 3 -lowpass 15.1 --abr 96
Language : Tamil
Default : No
Forced : No

Audio #4
ID : 5
Format : AAC
Format/Info : Advanced Audio Codec
Format profile : HE-AAC / LC
Codec ID : A_AAC
Duration : 2 h 17 min
Bit rate : 64.0 kb/s
Channel(s) : 2 channels
Channel positions : Front: L R
Sampling rate : 48.0 kHz / 24.0 kHz
Frame rate : 23.438 FPS (1024 spf)
Compression mode : Lossy
Delay relative to video : 31 ms
Stream size : 63.1 MiB (5%)
Title : www.MovCr.com
Language : English
Default : No
Forced : No

Text
ID : 6
Format : UTF-8
Codec ID : S_TEXT/UTF8
Codec ID/Info : UTF-8 Plain Text
Duration : 2 h 16 min
Bit rate : 47 b/s
Count of elements : 1359
Stream size : 46.8 KiB (0%)
Title : www.MovCr.com
Language : English
Default : Yes
Forced : No









#MovCr -> To avoid fakes, ALWAYS check that the torrent was added on classic-lawns.co.uk by MovCr

http://classic-lawns.co.uk/



Download Avengers Infinity War (2018) 720p - New HDTC - Line Auds - [Hindi + Tamil + Telugu + Eng] - MovCr torrent


Comments (please add your comment)
No comments



Home - Browse Torrents - Upload Torrent - Stat - Forum - FAQ - Login
classic-lawns.co.uk is in compliance with copyrights
2006-2018 classic-lawns.co.uk