[ ] Kanye West - ye (2018) MP3 | Lock Folder XP 3.6 Multilanguage | Beneath the Darkness 2011 480p BRRip Z3RO
classic-lawns.co.uk - The Largest Bittorent System Login   |    Register
Latest Articles
Most searched
Hot torrents
Movie Torrents
View Torrent Info: Rampage (2018) [720p] [YTS] [YIFY]
View Torrent Info: Ready Player One (2018) [720p] [YTS] [YIFY]
View Torrent Info: Escape Plan 2: Hades (2018) [720p] [YTS] [YIFY]
View Torrent Info: Blockers (2018) [720p] [YTS] [YIFY]
View Torrent Info: Life of the Party (2018) [720p] [YTS] [YIFY]
View Torrent Info: The Death of Superman (2018) [720p] [YTS] [YIFY]
View Torrent Info: Isle of Dogs (2018) [720p] [YTS] [YIFY]
View Torrent Info: Set It Up (2018) [720p] [YTS] [YIFY]
View Torrent Info: Beirut (2018) [720p] [YTS] [YIFY]
View Torrent Info: Ghostland (2018) [720p] [YTS] [YIFY]
Hot torrents
TV Torrents
View Torrent Info: Westworld.S02E09.WEB.H264-DEFLATE[eztv]
View Torrent Info: Supergirl.S03E23.HDTV.x264-KILLERS[eztv]
View Torrent Info: The.Originals.S05E09.HDTV.x264-KILLERS[eztv]
View Torrent Info: The.Expanse.S03E11.HDTV.x264-KILLERS[eztv]
View Torrent Info: Colony.S03E08.HDTV.x264-KILLERS[eztv]
View Torrent Info: Into.the.Badlands.S03E08.HDTV.x264-SVA[eztv]
View Torrent Info: Last.Week.Tonight.With.John.Oliver.S05E15.HDTV.x264-UAV[eztv]
View Torrent Info: Elementary.S06E08.HDTV.x264-LOL[eztv]
View Torrent Info: Reverie.S01E04.HDTV.x264-KILLERS[eztv]
View Torrent Info: 12.Monkeys.S04E01.HDTV.x264-KILLERS[eztv]
classic-lawns.co.uk > Categories > Movies torrents > DVD / Film Extras torrents


Browse Movies torrents

Orayiram Kinakkalal (2018) Malayalam - Original - DVDRip - x264 - 700MB - AAC - ESub - MovCr torrent



Download torrent: Download Orayiram Kinakkalal (2018) Malayalam - Original - DVDRip - x264 - 700MB - AAC - ESub - MovCr torrent Magnet link Bookmark Torrent: Orayiram Kinakkalal (2018) Malayalam - Original - DVDRip - x264 - 700MB - AAC - ESub - MovCr Orayiram Kinakkalal (2018) Malayalam - Original - DVDRip - x264 - 700MB - AAC - ESub - MovCr torrent | if not working, try instead: Magnet Link
Info hash: B8CEBA320A5A4FC0FB922944F54BD132FB9A4E1D
Category: Categories > Movies torrents > DVD / Film Extras torrents
Trackers:
22    View all torrent trackers >
Health:
 seeds: 1 ,  leechers: 3 |  Update >
Total Size: 698.10 MB
Torrent status: Added by trusted uploader Added by trusted uploader Trusted Uploader Site Friend Superman Sun
Uploader: Trusted Uploader Site Friend Superman Sun
Torrent added: 2018-06-14 11:05:45
 

Download Orayiram Kinakkalal (2018) Malayalam - Original - DVDRip - x264 - 700MB - AAC - ESub - MovCr torrent if not working, try downloading torrent using Download Orayiram Kinakkalal (2018) Malayalam - Original - DVDRip - x264 - 700MB - AAC - ESub - MovCr via Magnet Link




Torrent Description

http://movcr.com

Orayiram Kinakkalal (2018) Malayalam - Original - DVDRip - x264 - 700MB - AAC - ESub - MovCr


Video
ID : 1
Format : AVC
Format/Info : Advanced Video Codec
Format profile : [email protected]
Format settings, CABAC : Yes
Format settings, ReFrames : 4 frames
Codec ID : V_MPEG4/ISO/AVC
Duration : 2 h 21 min
Bit rate : 595 kb/s
Width : 720 pixels
Height : 304 pixels
Display aspect ratio : 2.35:1
Frame rate mode : Variable
Frame rate : 23.976 (23976/1000) FPS
Color space : YUV
Chroma subsampling : 4:2:0
Bit depth : 8 bits
Scan type : Progressive
Bits/(Pixel*Frame) : 0.113
Stream size : 599 MiB (86%)
Title : www.MovCr.com
Writing library : x264 core 112
Encoding settings : cabac=1 / ref=2 / deblock=1:0:0 / analyse=0x1:0x111 / me=hex / subme=6 / psy=1 / psy_rd=1.00:0.00 / mixed_ref=0 / me_range=16 / chroma_me=1 / trellis=0 / 8x8dct=0 / cqm=0 / deadzone=21,11 / fast_pskip=1 / chroma_qp_offset=-2 / threads=12 / sliced_threads=0 / nr=0 / decimate=1 / interlaced=0 / constrained_intra=0 / bframes=2 / b_pyramid=2 / b_adapt=1 / b_bias=0 / direct=1 / weightb=0 / open_gop=0 / weightp=2 / keyint=240 / keyint_min=23 / scenecut=40 / intra_refresh=0 / rc_lookahead=40 / rc=abr / mbtree=1 / bitrate=595 / ratetol=1.0 / qcomp=0.60 / qpmin=3 / qpmax=51 / qpstep=4 / ip_ratio=1.40 / aq=1:1.00
Language : English
Default : Yes
Forced : No
Color range : Limited
Color primaries : BT.601 NTSC
Transfer characteristics : BT.709
Matrix coefficients : BT.601

Audio
ID : 2
Format : AAC
Format/Info : Advanced Audio Codec
Format profile : LC
Codec ID : A_AAC
Duration : 2 h 21 min
Bit rate : 96.0 kb/s
Channel(s) : 2 channels
Channel positions : Front: L R
Sampling rate : 48.0 kHz
Frame rate : 46.875 FPS (1024 spf)
Compression mode : Lossy
Stream size : 96.5 MiB (14%)
Title : www.MovCr.com
Language : Malayalam
Default : Yes
Forced : No

Text
ID : 3
Format : UTF-8
Codec ID : S_TEXT/UTF8
Codec ID/Info : UTF-8 Plain Text
Duration : 2 h 20 min
Bit rate : 50 b/s
Count of elements : 1701
Stream size : 52.1 KiB (0%)
Title : www.MovCr.com
Default : Yes
Forced : No









#MovCr -> To avoid fakes, ALWAYS check that the torrent was added on classic-lawns.co.uk by MovCr

http://classic-lawns.co.uk/



Download Orayiram Kinakkalal (2018) Malayalam - Original - DVDRip - x264 - 700MB - AAC - ESub - MovCr torrent


Comments (please add your comment)
No comments



Home - Browse Torrents - Upload Torrent - Stat - Forum - FAQ - Login
classic-lawns.co.uk is in compliance with copyrights
2006-2018 classic-lawns.co.uk